我爱看高清论坛

 找回密码
 立即注册
搜索
查看: 189|回复: 8

[电影匹配] [调制] 黑帮生意The.Business.2005 东影上译DD2.0-256kbps

[复制链接]
  • TA的每日心情
    开心
    2017-5-11 10:54
  • 签到天数: 21 天

    [LV.4]偶尔看看III

    论坛贵宾

    UID
    66
    注册时间
    2015-10-7
    最后登录
    2019-3-22
    在线时间
    108 小时
    帖子
    110
    主题
    23
    精华
    2
    汤圆
    18637
    饺子
    48
    年糕
    0
    积分
    319
    阅读权限
    70
    通行证
    10
    发表于 2018-12-19 10:52:06 | 显示全部楼层
    声明:本站所有作品片源均来源于互联网公开渠道,影视版权均归原电影公司所有,如有侵犯版权,请与52khd@52khd.cn联系,我们将立即删除. 52KHD宗旨点击进入
    13d23664d9551fde.jpg
    《黑帮生意》描写英国少年弗兰克逃离了肮脏的南伦敦犹太人居住区,计划在阳光明媚的西班牙更确切的说是在阳光海岸(西班牙旅游圣地)开始他的新生活。弗兰克的随身行李就是一大笔现金,但弗兰克万万没有想到的是这笔钱却让他进入了前犯罪分子查尔斯的堕落世界。弗兰克比查尔斯预计的还要有钱, 不过在查尔斯知道这点之前,弗兰克已经成为查尔斯的黑帮中的一份子,并猛然闯入了另一个让人陶醉的世界---有组织犯罪的漩涡中。

    导演: 尼克·拉夫
    编剧: 尼克·拉夫
    主演: 丹尼·戴尔 / 塔梅尔·哈桑 / 杰夫贝尔
    类型: 剧情 / 惊悚 / 犯罪
    制片国家/地区: 英国 / 西班牙
    语言: 英语 / 西班牙语
    上映日期: 2005-09-02
    片长: 97 分钟
    IMDb链接: tt0429715
    豆瓣评分: 6.6

    黑帮生意的剧情简介 · · · · · ·

      Frankie,一个在伦敦南部混乱的犹太街区打拼的年轻男孩,计划逃离到犯罪海岸(西班牙东南部观光中心,吸引很多英国罪犯)开始新的生活。除了行礼箱中的一捆现金外,别无他物的他开始行程。然而让Frankie预料之外的是,当他把钱交付给超级文雅地花花公子即前罪犯 Charlie后,他的生活被永远改变,他很快成为帮派中的一员,陷入浮华和暴力的组织犯罪世界中.

    General
    Complete name                  : G:\新建文件夹\素材\黑帮生意The.Business.2005 东影上译DD2.0
    -256kbps[新月无恨录制,yuanyiyang调制/01:35:30:368/23.976].ac3
    Format                         : AC-3
    Format/Info                    : Audio Coding 3
    Commercial name                : Dolby Digital
    File size                      : 175 MiB
    Duration                       : 1 h 35 min
    Overall bit rate mode          : Constant
    Overall bit rate               : 256 kb/s

    Audio
    Format                         : AC-3
    Format/Info                    : Audio Coding 3
    Commercial name                : Dolby Digital
    Duration                       : 1 h 35 min
    Bit rate mode                  : Constant
    Bit rate                       : 256 kb/s
    Channel(s)                     : 2 channels
    Channel layout                 : L R
    Sampling rate                  : 48.0 kHz
    Frame rate                     : 31.250 FPS (1536 SPF)
    Bit depth                      : 16 bits
    Compression mode               : Lossy
    Stream size                    : 175 MiB (100%)
    Service kind                   : Complete Main


    视频:
    General
    Unique ID                      : 196313568960137944830016939574968904257 (0x93B09E3B7915F20583C7D95AF1E2EA41)
    Complete name                  : G:\黑帮生意(国英双语) The.Business.2005.mkv
    Format                         : Matroska
    Format version                 : Version 2
    File size                      : 7.75 GiB
    Duration                       : 1 h 35 min
    Overall bit rate               : 11.6 Mb/s
    Movie name                     : The.Bussines.2005.1080p.BluRay.x264.DD5.1-FGT
    Encoded date                   : UTC 2018-12-15 14:37:21
    Writing application            : mkvmerge v5.7.0 ('The Whirlwind') built on Jul  8 2012 20:08:51
    Writing library                : libebml v1.2.3 + libmatroska v1.3.0
    Cover                          : Yes
    Attachments                    : cover.jpg / cover_land.jpg / small_cover.jpg / small_cover_land.jpg

    Video
    ID                             : 1
    Format                         : AVC
    Format/Info                    : Advanced Video Codec
    Format profile                 : High@L4.1
    Format settings                : CABAC / 4 Ref Frames
    Format settings, CABAC         : Yes
    Format settings, ReFrames      : 4 frames
    Muxing mode                    : Header stripping
    Codec ID                       : V_MPEG4/ISO/AVC
    Duration                       : 1 h 35 min
    Bit rate                       : 10.7 Mb/s
    Width                          : 1 920 pixels
    Height                         : 816 pixels
    Display aspect ratio           : 2.35:1
    Frame rate mode                : Constant
    Frame rate                     : 23.976 FPS
    Color space                    : YUV
    Chroma subsampling             : 4:2:0
    Bit depth                      : 8 bits
    Scan type                      : Progressive
    Bits/(Pixel*Frame)             : 0.285
    Stream size                    : 6.99 GiB (90%)
    Writing library                : x264 core 68 r1183M f21daff
    Encoding settings              : cabac=1 / ref=4 / deblock=1:-3:-3 / analyse=0x3:0x113 / me=umh / subme=9 / psy_rd=1.1:0.2 / mixed_ref=1 / me_range=44 / chroma_me=1 / trellis=2 / 8x8dct=1 / cqm=0 / deadzone=21,11 / chroma_qp_offset=-1 / threads=4 / nr=0 / decimate=0 / mbaff=0 / bframes=5 / b_pyramid=1 / b_adapt=2 / b_bias=0 / direct=3 / wpredb=1 / keyint=250 / keyint_min=25 / scenecut=40 / rc=2pass / bitrate=10715 / ratetol=1.0 / qcomp=0.60 / qpmin=10 / qpmax=51 / qpstep=4 / cplxblur=20.0 / qblur=0.5 / vbv_maxrate=50000 / vbv_bufsize=50000 / ip_ratio=1.40 / pb_ratio=1.30 / aq=1:0.80
    Language                       : English
    Default                        : Yes
    Forced                         : No

    Audio #1
    ID                             : 2
    Format                         : AC-3
    Format/Info                    : Audio Coding 3
    Commercial name                : Dolby Digital
    Muxing mode                    : Header stripping
    Codec ID                       : A_AC3
    Duration                       : 1 h 35 min
    Bit rate mode                  : Constant
    Bit rate                       : 256 kb/s
    Channel(s)                     : 2 channels
    Channel layout                 : L R
    Sampling rate                  : 48.0 kHz
    Frame rate                     : 31.250 FPS (1536 SPF)
    Bit depth                      : 16 bits
    Compression mode               : Lossy
    Stream size                    : 175 MiB (2%)
    Language                       : Chinese
    Service kind                   : Complete Main
    Default                        : Yes
    Forced                         : Yes

    Audio #2
    ID                             : 3
    Format                         : AC-3
    Format/Info                    : Audio Coding 3
    Commercial name                : Dolby Digital
    Muxing mode                    : Header stripping
    Codec ID                       : A_AC3
    Duration                       : 1 h 35 min
    Bit rate mode                  : Constant
    Bit rate                       : 640 kb/s
    Channel(s)                     : 6 channels
    Channel layout                 : L R C LFE Ls Rs
    Sampling rate                  : 48.0 kHz
    Frame rate                     : 31.250 FPS (1536 SPF)
    Bit depth                      : 16 bits
    Compression mode               : Lossy
    Stream size                    : 437 MiB (6%)
    Language                       : English
    Service kind                   : Complete Main
    Default                        : No
    Forced                         : No


    本人录制源码,谢绝转载.由【yuanyiyang】大神调校,本音轨只在【cnlang.org】及友站【52khd.cn】交流发布
    未经原作者同意谢绝任何形式的提取再加工,转发,谢谢配合。


    游客,如果您要查看本帖隐藏内容请回复

    评分

    参与人数 1汤圆 +30 收起 理由
    苏摩俪辞 + 30 欢迎友站大神来发大作

    查看全部评分

    回复

    使用道具 举报

  • TA的每日心情
    开心
    3 天前
  • 签到天数: 64 天

    [LV.6]常住居民II

    高清中忍

    UID
    23183
    注册时间
    2018-12-22
    最后登录
    2019-3-19
    在线时间
    27 小时
    帖子
    718
    主题
    0
    精华
    0
    汤圆
    473
    饺子
    0
    年糕
    0
    积分
    722
    阅读权限
    50
    通行证
    0
    发表于 2018-12-30 00:56:34 | 显示全部楼层
    这片完全不了解

    回复 支持 反对

    使用道具 举报

  • TA的每日心情
    开心
    2019-3-13 10:26
  • 签到天数: 217 天

    [LV.7]常住居民III

    高清下忍

    UID
    2013
    注册时间
    2016-5-31
    最后登录
    2019-3-19
    在线时间
    81 小时
    帖子
    230
    主题
    0
    精华
    0
    汤圆
    703
    饺子
    0
    年糕
    0
    积分
    240
    阅读权限
    35
    通行证
    0
    发表于 2019-1-5 15:29:36 | 显示全部楼层
    谢谢楼主分享国语音轨!

    回复 支持 反对

    使用道具 举报

  • TA的每日心情

    2019-2-28 19:37
  • 签到天数: 86 天

    [LV.6]常住居民II

    高清中忍

    UID
    23070
    注册时间
    2018-11-28
    最后登录
    2019-2-28
    在线时间
    43 小时
    帖子
    931
    主题
    1
    精华
    0
    汤圆
    1
    饺子
    0
    年糕
    2
    积分
    936
    阅读权限
    50
    通行证
    10
    发表于 2019-1-9 10:41:02 | 显示全部楼层
    情节人物都是我所喜欢的

    回复 支持 反对

    使用道具 举报

  • TA的每日心情
    开心
    昨天 17:37
  • 签到天数: 218 天

    [LV.7]常住居民III

    高清中忍

    UID
    22095
    注册时间
    2018-8-2
    最后登录
    2019-3-21
    在线时间
    63 小时
    帖子
    941
    主题
    0
    精华
    0
    汤圆
    2661
    饺子
    0
    年糕
    2
    积分
    949
    阅读权限
    50
    通行证
    10
    发表于 2019-1-11 21:02:45 | 显示全部楼层
    没看过 谢谢分享国语电影

    回复 支持 反对

    使用道具 举报

  • TA的每日心情
    开心
    5 天前
  • 签到天数: 11 天

    [LV.3]偶尔看看II

    高清村民

    UID
    5580
    注册时间
    2017-4-2
    最后登录
    2019-3-18
    在线时间
    8 小时
    帖子
    42
    主题
    0
    精华
    0
    汤圆
    145
    饺子
    0
    年糕
    0
    积分
    43
    阅读权限
    10
    通行证
    10
    发表于 2019-1-16 02:34:38 | 显示全部楼层
    谢谢楼主分享

    回复 支持 反对

    使用道具 举报

  • TA的每日心情
    奋斗
    19 小时前
  • 签到天数: 159 天

    [LV.7]常住居民III

    高清上忍

    UID
    22584
    注册时间
    2018-10-2
    最后登录
    2019-3-22
    在线时间
    107 小时
    帖子
    1860
    主题
    1
    精华
    0
    汤圆
    196
    饺子
    0
    年糕
    2
    积分
    1873
    阅读权限
    75
    通行证
    10
    发表于 2019-1-17 21:42:12 | 显示全部楼层
    谢谢分享国语的,感谢

    回复 支持 反对

    使用道具 举报

  • TA的每日心情
    开心
    13 小时前
  • 签到天数: 97 天

    [LV.6]常住居民II

    预备下忍

    UID
    17458
    注册时间
    2018-4-2
    最后登录
    2019-3-22
    在线时间
    28 小时
    帖子
    110
    主题
    1
    精华
    0
    汤圆
    731
    饺子
    0
    年糕
    0
    积分
    114
    阅读权限
    30
    通行证
    0
    发表于 2019-1-23 14:57:53 | 显示全部楼层
    看到大神格外亲切啊,哎,cnlang还打不开啊

    回复 支持 反对

    使用道具 举报

  • TA的每日心情
    慵懒
    20 小时前
  • 签到天数: 352 天

    [LV.8]以坛为家I

    特别上忍

    UID
    17375
    注册时间
    2018-4-1
    最后登录
    2019-3-22
    在线时间
    639 小时
    帖子
    4573
    主题
    168
    精华
    0
    汤圆
    20654
    饺子
    26
    年糕
    5
    积分
    4757
    阅读权限
    85
    通行证
    0
    发表于 2019-2-22 01:38:52 | 显示全部楼层
    很喜欢这类型电影,资源不错,收藏下载,多谢分享音轨

    回复 支持 反对

    使用道具 举报

    您需要登录后才可以回帖 登录 | 立即注册

    本版积分规则

    小黑屋|手机版|Archiver|我爱看高清论坛

    GMT+8, 2019-3-22 20:03

    Powered by 52KHD.CN

    © 2015-2019 我爱看高清论坛

    快速回复 返回顶部 返回列表