我爱看高清论坛

 找回密码
 立即注册
搜索
查看: 417|回复: 40

[港台] [一见钟情 2000][WEB-MKV.1080P.x264.AAC][国粤双语/简体硬字幕][1.97G]

[复制链接]
  • TA的每日心情
    无聊
    2018-4-17 15:04
  • 签到天数: 107 天

    [LV.6]常住居民II

    下忍队长

    UID
    10896
    注册时间
    2017-12-12
    最后登录
    2019-1-18
    在线时间
    162 小时
    帖子
    351
    主题
    8
    精华
    0
    汤圆
    2580
    饺子
    16
    年糕
    7
    积分
    435
    阅读权限
    40
    通行证
    0
    发表于 2018-3-31 16:34:34 | 显示全部楼层
    p2460493108.jpg
    ◎导演 刘伟强
    ◎编剧 陈十三
    ◎主演 张曼玉 / 黎明 / 葛民辉 / 吴耀汉 / 关秀媚 / 更多...
    ◎类型 爱情
    ◎制片 国家/地区: 香港 / 美国
    ◎语言 粤语 / 国语
    ◎上映日期 2000-04-20
    ◎片长 97
    ◎又名 Sausalito
    ◎IMDb链接 tt0240880
    ◎简  介
    被丈夫遗弃的Ellen(张曼玉)与玩世不恭的网络公司创办人Mike(黎明饰)在美国旧金山一见钟情,开始了一段爱情攻防战争。女人的天性使Ellen不自觉地侵入了Mike的个人空间,令不羁的Mike产生抵抗情绪,可是也终被Ellen的无条件付出感动,两人携手一起生活。然而在激情和温馨过后,因为Mike的公司出现经济困境,两人开始不断的争吵,暴露出各自的世界观有巨大差异的事实。在极度失意下,Ellen 提出分手,但像香港城的沦陷成全了白流苏和范柳原一样,一年后旧金山发生的大地震,为他们的重新牵手提供了契机。

    General
    Unique ID                      : 217859782276654408737918754493538374235 (0xA3E64490EDA03C68B649DA50BB0A125B)
    Complete name                  : F:\BaiduYunDownload\一见钟情 Sausalito.2000.WEB-DL.1080P .mkv
    Format                         : Matroska
    Format version                 : Version 4 / Version 2
    File size                      : 1.97 GiB
    Duration                       : 1 h 37 min
    Overall bit rate               : 2 889 kb/s
    Encoded date                   : UTC 2018-03-14 04:44:38
    Writing application            : mkvmerge v8.5.2 ('Crosses') 64bit
    Writing library                : libebml v1.3.3 + libmatroska v1.4.4

    Video
    ID                             : 1
    Format                         : AVC
    Format/Info                    : Advanced Video Codec
    Format profile                 : High@L4
    Format settings                : CABAC / 3 Ref Frames
    Format settings, CABAC         : Yes
    Format settings, ReFrames      : 3 frames
    Codec ID                       : V_MPEG4/ISO/AVC
    Duration                       : 1 h 37 min
    Bit rate                       : 2 633 kb/s
    Width                          : 1 920 pixels
    Height                         : 1 080 pixels
    Display aspect ratio           : 16:9
    Frame rate mode                : Variable
    Frame rate                     : 24.000 FPS
    Color space                    : YUV
    Chroma subsampling             : 4:2:0
    Bit depth                      : 8 bits
    Scan type                      : Progressive
    Bits/(Pixel*Frame)             : 0.053
    Stream size                    : 1.80 GiB (91%)
    Default                        : Yes
    Forced                         : No
    Color range                    : Limited
    Color primaries                : BT.709
    Transfer characteristics       : BT.709
    Matrix coefficients            : BT.709

    Audio #1
    ID                             : 2
    Format                         : AAC
    Format/Info                    : Advanced Audio Codec
    Format profile                 : LC
    Codec ID                       : A_AAC-2
    Duration                       : 1 h 37 min
    Bit rate                       : 192 kb/s
    Channel(s)                     : 2 channels
    Channel positions              : Front: L R
    Sampling rate                  : 44.1 kHz
    Frame rate                     : 43.066 FPS (1024 SPF)
    Compression mode               : Lossy
    Delay relative to video        : -83 ms
    Stream size                    : 133 MiB (7%)
    Title                          : 国语
    Language                       : Chinese
    Default                        : Yes
    Forced                         : No

    Audio #2
    ID                             : 3
    Format                         : AAC
    Format/Info                    : Advanced Audio Codec
    Format profile                 : HE-AAC / LC
    Format settings                : Explicit
    Codec ID                       : A_AAC-2
    Duration                       : 1 h 37 min
    Bit rate                       : 62.9 kb/s
    Channel(s)                     : 2 channels
    Channel positions              : Front: L R
    Sampling rate                  : 44.1 kHz / 22.05 kHz
    Frame rate                     : 21.533 FPS (1024 SPF)
    Compression mode               : Lossy
    Delay relative to video        : -83 ms
    Stream size                    : 44.0 MiB (2%)
    Title                          : 粤语
    Language                       : Chinese
    Default                        : No
    Forced                         : No
    一见钟情 Sausalito.2000.WEB-DL.1080P .mkv_20180331_162327.421.jpg
    一见钟情 Sausalito.2000.WEB-DL.1080P .mkv_20180331_162347.717.jpg
    一见钟情 Sausalito.2000.WEB-DL.1080P .mkv_20180331_162413.203.jpg
    一见钟情 Sausalito.2000.WEB-DL.1080P .mkv.jpg
    后缀名改为mkv就可以播放
    购买主题 已有 6 人购买  本主题需向作者支付 50 汤圆 才能浏览
    回复

    使用道具 举报

  • TA的每日心情
    慵懒
    2018-4-12 14:08
  • 签到天数: 493 天

    [LV.9]以坛为家II

    禁止访问

    UID
    2969
    注册时间
    2016-10-18
    最后登录
    2018-4-13
    在线时间
    120 小时
    帖子
    763
    主题
    0
    精华
    0
    汤圆
    2948
    饺子
    0
    年糕
    19
    积分
    791
    阅读权限
    0
    通行证
    0
    发表于 2018-4-1 12:47:15 | 显示全部楼层
    提示: 作者被禁止或删除 内容自动屏蔽
    回复 支持 反对

    使用道具 举报

  • TA的每日心情
    开心
    昨天 21:36
  • 签到天数: 578 天

    [LV.9]以坛为家II

    中忍队长

    UID
    6712
    注册时间
    2017-6-10
    最后登录
    2019-1-21
    在线时间
    217 小时
    帖子
    1356
    主题
    1
    精华
    0
    汤圆
    5323
    饺子
    0
    年糕
    5
    积分
    1383
    阅读权限
    60
    通行证
    0

    活跃会员灌水之王

    发表于 2018-4-1 22:24:46 | 显示全部楼层
    以前的电影挺好看的

    回复 支持 反对

    使用道具 举报

  • TA的每日心情
    开心
    昨天 21:36
  • 签到天数: 578 天

    [LV.9]以坛为家II

    中忍队长

    UID
    6712
    注册时间
    2017-6-10
    最后登录
    2019-1-21
    在线时间
    217 小时
    帖子
    1356
    主题
    1
    精华
    0
    汤圆
    5323
    饺子
    0
    年糕
    5
    积分
    1383
    阅读权限
    60
    通行证
    0

    活跃会员灌水之王

    发表于 2018-4-1 22:25:19 | 显示全部楼层
    以前的电影挺好看的

    回复 支持 反对

    使用道具 举报

  • TA的每日心情
    无聊
    2019-1-12 15:36
  • 签到天数: 594 天

    [LV.9]以坛为家II

    特别上忍

    UID
    1795
    注册时间
    2016-5-12
    最后登录
    2019-1-12
    在线时间
    702 小时
    帖子
    5633
    主题
    0
    精华
    0
    汤圆
    4389
    饺子
    0
    年糕
    9
    积分
    5723
    阅读权限
    85
    通行证
    10
    发表于 2018-4-1 22:55:28 | 显示全部楼层
    好浪漫的一部爱情片,喜欢黎明和张曼玉合作的电影,赞!

    回复 支持 反对

    使用道具 举报

  • TA的每日心情
    奋斗
    2018-7-8 01:58
  • 签到天数: 109 天

    [LV.6]常住居民II

    预备下忍

    UID
    15107
    注册时间
    2018-2-25
    最后登录
    2018-7-8
    在线时间
    26 小时
    帖子
    125
    主题
    0
    精华
    0
    汤圆
    578
    饺子
    0
    年糕
    0
    积分
    128
    阅读权限
    30
    通行证
    0
    发表于 2018-4-3 01:58:00 | 显示全部楼层
    谢谢分享66666666666666

    回复 支持 反对

    使用道具 举报

  • TA的每日心情
    奋斗
    10 小时前
  • 签到天数: 132 天

    [LV.7]常住居民III

    中忍队长

    UID
    15802
    注册时间
    2018-3-7
    最后登录
    2019-1-22
    在线时间
    50 小时
    帖子
    1114
    主题
    0
    精华
    0
    汤圆
    1
    饺子
    0
    年糕
    0
    积分
    1120
    阅读权限
    60
    通行证
    0
    发表于 2018-4-4 20:25:38 | 显示全部楼层
    一见钟情的情节不错可以下来看看

    回复 支持 反对

    使用道具 举报

  • TA的每日心情

    2018-4-12 10:50
  • 签到天数: 489 天

    [LV.9]以坛为家II

    禁止访问

    UID
    1420
    注册时间
    2016-4-10
    最后登录
    2018-4-13
    在线时间
    111 小时
    帖子
    785
    主题
    0
    精华
    0
    汤圆
    5331
    饺子
    0
    年糕
    19
    积分
    821
    阅读权限
    0
    通行证
    0
    发表于 2018-4-5 10:47:01 | 显示全部楼层
    提示: 作者被禁止或删除 内容自动屏蔽
    回复 支持 反对

    使用道具 举报

  • TA的每日心情
    开心
    2 小时前
  • 签到天数: 904 天

    [LV.10]以坛为家III

    高清上忍

    UID
    1737
    注册时间
    2016-5-7
    最后登录
    2019-1-22
    在线时间
    375 小时
    帖子
    2038
    主题
    9
    精华
    0
    汤圆
    762
    饺子
    2
    年糕
    6
    积分
    2093
    阅读权限
    75
    通行证
    10
    发表于 2018-4-6 11:18:22 | 显示全部楼层
    谢楼主分享 张曼玉主演影片 一见钟情

    回复 支持 反对

    使用道具 举报