我爱看高清论坛

 找回密码
 立即注册
搜索
查看: 19|回复: 0

[欧美] BBC 隐形小世界[简繁英]Invisible Worlds 1080i CHN Blu-ray AVC DTS-HD MA2 0-HDBiger [38.4GB]

[复制链接]

该用户从未签到

发布组

UID
1690
注册时间
2016-5-2
最后登录
2016-5-2
在线时间
0 小时
帖子
16566
主题
15438
精华
0
威望
0
汤圆
33126
饺子
0
年糕
0
积分
16566
阅读权限
100
发表于 2016-7-26 07:03:40 | 显示全部楼层
本帖最后由 saich001 于 2017-2-15 13:01 编辑


*理查德·哈蒙德执导纪录片*[繁体中文 / 简体中文 / 英文]



◎中文名:隐形世界
◎外文名:Richard Hammond's Invisible Worlds
◎出品公司:BBC
◎拍摄地点:英国
◎主    演:理查德·哈蒙德
◎集    数:3集
◎每集长度:60分钟/集 (海外版本 50分钟/集)
◎类    型:探索
◎上映时间:2010-03-16
◎旁    白:Martin Ball(海外版本)

◎内容提要

  在本系列影片中,理查德?哈蒙德进入与我们所处宇宙平行的另一个宇宙,这个宇宙非肉眼所能见。

  利用最先进的成像技术,理查德发现我们无法看见的东西和能够看见之物一样多,可见与不可见之物共同塑造了我们的世界。从范围巨大的超高速闪电群等自然现象,到动植物世界的奇迹之一,以至人类取得的科技成就,理查德探索了三个独特而不可见的领域中隐藏的秘密,这些领域人眼无从得见,本片将为我们解开地球上一些谜团。


◎第一集:速度的限制


你是否尝试过换个角度看世界?看凤仙花种子弹射瞬间,蜘蛛慢镜头吐出蛛丝,闪电自下而上的冲击,时速160公里的喷嚏……在尖端科学的帮助下,即呈现了一个全新的神奇世界。超高速摄影机捕捉物体瞬间的变化;全新成像技术超越视觉极限;显微摄影放大了微观世界……在我们肉眼看不到的地方,大自然按照它自有的法则正在悄然运行。瞬息之间惊人的美,不要错过。

◎第二集:视线之外

人类的眼睛是最精密工程中极为重要的一环,但它也有着极大的局限性。在狭窄的视线范围之外,有一片类似彩虹的色彩。这便是大范围的光谱,人类完全看不见。
  如果我们能看到狭窄的视觉外的东西,然后窥视这个视觉外的区域,又会怎样呢?
  运用具有开创性的新型成像技术,我们就可以踏上探索超越可见光谱的惊险旅程了。我们要透过全新的光来看这个世界。
  美国的空中修理工,使用紫外线辐射摄像机寻找隐形的力量,即看不见的电力线;德国科学家用世界上最强大的可移动X光摄像机,揭开了动物运动的奥秘,并且用红外摄像机最终揭开了毫不起眼的蜂巢的秘密。以上种种都运用了最新科技,让我们可以重新审视这个世界

◎第三集:改变规模


人类的眼睛可以看到很精密的细节。但是要在一臂之外看清针眼,就已经是我们的视线极限了。其他再小的东西通常都看不见,至少肉眼无法辨认。
  如果我们能够看到身边这个隐藏的世界中更多的细节,把它放大许多倍,会是什么样的情况呢?同我们熟悉的这个环境又会有多大的区别呢?
  我们探索了身边这个令人惊奇的微型世界,发现这个小宇宙不但美丽,而且拥有超强的力量。
  我们可以看到,冰晶一个极微小的变化,便会触发一场雪崩;在市郊往返列车上打一个喷嚏,将会引发一场看不见的可怕事故;一棵外表看来普通的植物隐藏了惊人的秘密,即这棵植物会使在月球行走变得更安全。尖端科技将带我们进入一个壮观的微型王国。
代码


DISC INFO:

Disc Title: Invisible Worlds 1080i CHN Blu-ray AVC DTS-HD MA2 0-HDBiger
Disc Size: 41,240,502,797 bytes
Protection: AACS
BD-Java: No
BDInfo: 0.5.8

PLAYLIST REPORT:

Name: 00001.MPLS
Length: 2:28:59.664 (h:m:s.ms)
Size: 0 bytes
Total Bitrate: 0.00 Mbps

VIDEO:

Codec Bitrate Description
----- ------- -----------
MPEG-4 AVC Video 0 kbps 1080i / 29.970 fps / 16:9 / High Profile 4.1

AUDIO:

Codec Language Bitrate Description
----- -------- ------- -----------
DTS-HD Master Audio English 0 kbps 2.0 / 48 kHz / 16-bit (DTS Core: 2.0 / 48 kHz / 1509 kbps / 16-bit)
Dolby Digital Audio English 384 kbps 2.0 / 48 kHz / 384 kbps

SUBTITLES:

Codec Language Bitrate Description
----- -------- ------- -----------
Presentation Graphics English 0.000 kbps
Presentation Graphics Chinese 0.000 kbps
Presentation Graphics Chinese 0.000 kbps
Presentation Graphics Chinese 0.000 kbps

FILES:

Name Time In Length Size Total Bitrate
---- ------- ------ ---- -------------
00003.M2TS 0:00:00.000 0:48:15.959 0 0
00004.M2TS 0:48:15.959 0:50:06.670 0 0
00005.M2TS 1:38:22.630 0:50:37.034 0 0

                                                                                                                                                                                                       
       

游客,如果您要查看本帖隐藏内容请回复
                                                                                                                                                                                                                                                                                                                                                                                                                                                                                                                                                                                                                                                                                                                                                                                                                                                                                                                                                                 

回复

使用道具 举报

您需要登录后才可以回帖 登录 | 立即注册

本版积分规则

Archiver|手机版|小黑屋|我爱看高清论坛  

GMT+8, 2017-4-30 07:08

Powered by 52KHD.CN

© 2015-2017 我爱看高清论坛

快速回复 返回顶部 返回列表